<?xml version="1.0" standalone="no"?>
<!DOCTYPE svg PUBLIC "-//W3C//DTD SVG 1.1//EN" "http://www.w3.org/Graphics/SVG/1.1/DTD/svg11.dtd">
<svg xmlns="http://www.w3.org/2000/svg">
<metadata>Generated by Fontastic.me</metadata>
<defs>
<font id="social-warfare-icons" horiz-adv-x="512">
<font-face font-family="social-warfare-icons" units-per-em="512" ascent="480" descent="-32"/>
<missing-glyph horiz-adv-x="512" />

<glyph glyph-name="amazon" unicode="&#97;" d="M259 438c-51 0-107-19-118-80-2-6 3-9 8-11l51-5c5 0 8 5 10 10 4 21 22 32 43 32 11 0 24-5 30-14 5-12 5-26 5-39l0-6c-30-3-70-5-99-18-34-14-56-43-56-86 0-55 35-82 80-82 38 0 57 10 86 39 10-15 13-21 31-36 3-1 9-1 12 2 12 10 31 26 40 35 5 3 4 10 0 15-9 12-19 24-19 49l0 82c0 35 2 67-24 91-21 16-54 22-80 22z m15-156c4 0 9 0 14 0l0-12c0-20 2-36-10-56-8-14-22-24-36-24-21 0-32 16-32 39 0 40 30 51 64 53z m145-122c-13 0-29-3-41-11-4-3-4-7 1-7 13 2 43 5 50-1 5-7-7-35-11-48-2-3 1-5 4-2 23 19 29 58 24 63-1 3-12 6-27 6z m-352-8c-3 0-3-3-1-6 49-45 116-72 190-72 53 0 114 16 155 46 7 5 2 13-6 10-47-20-99-29-146-29-69 0-136 19-190 49 0 2-2 2-2 2z"/>
<glyph glyph-name="baidu" unicode="&#98;" d="M134 248c31 6 36 35 36 54 0 7 0 13-2 15-2 16-19 43-43 45-2 0-2 0-3 0-32-4-37-52-37-52 0-3 0-6 0-9 0-23 13-53 41-55 2 0 5 0 8 2z m79 85c24 0 43 25 43 57 0 32-19 58-43 58-24 0-43-26-43-58 0-32 19-57 43-57z m-37-192c0-16 13-26 19-26l23 0 0 53-23 0c-8 0-19-11-19-27z m133 182c1 0 5 0 6 0 26 2 42 32 47 55 0 1 0 4 0 6 0 24-18 48-37 53-21 6-47-29-50-53 0-3 0-6 0-11 0-24 8-47 34-50z m64-137c-16 14-37 30-64 70-18 26-34 38-58 38-25 0-40-12-53-32-20-28-28-38-49-54-8-6-47-30-47-74 0-49 37-70 69-70 43 0 53 10 80 10 35 0 53-10 82-10 56 0 67 42 67 69 0 25-11 38-27 53z m-130-93l-54 0c-21 3-39 22-39 48 0 0 0 0 0 1 0 26 18 44 39 47l29 0 0 38 25 0z m99 0l-60 0c-26 6-26 24-26 24l0 72 26 0 0-64c1-7 9-8 9-8l27 0 0 72 26 0 0-96z m87 190c0 13-10 50-45 50-35 0-40-35-40-59 0-23 2-56 43-56 2 0 2 0 3 0 39 1 40 40 40 59-1 3-1 5-1 6z"/>
<glyph glyph-name="blogger" unicode="&#99;" d="M446 288l-3 6-5 5c-6 5-43 0-52 8-7 7-8 18-10 34-3 30-6 30-11 41-18 36-63 63-95 66l-84 0c-66 0-122-54-122-122l0-140c0-68 54-122 122-122l139 0c67 0 121 54 121 122z m-259 61l67 0c13 0 24-10 24-23 0-12-9-24-24-24l-67 0c-13 0-24 12-24 24 2 13 11 23 24 23z m138-186l-136 0c-13 0-24 11-24 23 0 12 9 22 24 22l136 0c13 0 22-10 22-22 0-12-9-23-22-23z"/>
<glyph glyph-name="buffer" unicode="&#100;" d="M72 357l170-80c9-5 20-5 28 0l170 80c3 1 3 6 0 8l-168 80c-10 5-22 5-32 0l-170-80c-1-3-1-7 2-8z m368-98l-35 16c-7 3-15 3-23 0l-112-53c-9-4-20-4-28 0l-112 53c-7 3-15 3-21 0l-37-17c-3-2-3-7 0-8l170-80c9-5 20-5 28 0l170 80c3 3 3 8 0 9z m0-102l-35 16c-7 3-15 3-23 0l-112-53c-9-5-20-5-28 0l-112 53c-7 3-15 3-21 0l-37-18c-3-1-3-6 0-8l170-80c9-5 20-5 28 0l170 80c3 2 3 8 0 10z"/>
<glyph glyph-name="close" unicode="&#101;" d="M170 405l235-235c13-13 13-32 0-45l-18-18c-13-13-32-13-45 0l-235 235c-13 13-13 32 0 45l18 18c11 13 32 13 45 0z m235-63l-235-235c-13-13-32-13-45 0l-18 18c-13 13-13 32 0 45l235 235c13 13 32 13 45 0l18-18c13-11 13-32 0-45z"/>
<glyph glyph-name="delicious" unicode="&#102;" d="M64 448l0-384 384 0 0 384z m190-32l0-158-158 0 0 158z m4-320l0 160 158 0 0-160z"/>
<glyph glyph-name="digg" unicode="&#103;" d="M178 365c0-5 0-24 0-24l33 0c0 0 5 0 5 5 0 4 0 24 0 24l-34 0c0 0-4 0-4-5z m0-50c0-5 0-126 0-126l33 0c0 0 5 0 5 5 0 1 0 126 0 126l-34 0c0 0-4 0-4-5z m-50 50l0-45-59 0c0 0-5 0-5-5l0-126 99 0c0 0 5 0 5 5 0 4 0 176 0 176l-35 0c0 0-5 0-5-5z m0-144c0-5-5-5-5-5l-22 0 0 70c0 5 5 5 5 5l22 0z m101 94l0-126 64 0 0-18-61 0c0 0-5 0-5-5 0-4 0-24 0-24l98 0c0 0 5 0 5 5 0 5 0 173 0 173l-100 0c4 0-1 0-1-5z m38-29c0 5 5 5 5 5l22 0 0-70c0-5-4-5-4-5l-23 0z m82 34c0 0-5 0-5-5l0-126 64 0 0-18-61 0c0 0-5 0-5-5 0-4 0-24 0-24l100 0c0 0 4 0 4 5 0 5 0 173 0 173z m61-99c0-5-5-5-5-5l-23 0 0 70c0 5 5 5 5 5l23 0z"/>
<glyph glyph-name="ello" unicode="&#104;" d="M256 448c-106 0-192-86-192-192 0-106 86-192 192-192 106 0 192 86 192 192 0 106-86 192-192 192z m-2-312c-80 0-110 66-115 99-1 8 5 16 13 18 8 1 16-5 18-13 0-3 12-74 84-74 74 0 90 71 90 74 2 8 10 13 18 11 8-1 12-9 11-17-7-34-40-98-119-98z"/>
<glyph glyph-name="email" unicode="&#105;" d="M386 390l-260 0c-33 0-62-27-62-62l0-144c0-35 29-62 62-62l258 0c35 0 62 28 62 62l0 144c2 35-27 62-60 62z m-50-124l74 62 0-125z m-234-64l0 124 74-62z m29 152l250 0-125-108z m-5-196c-4 0-9 2-12 4l89 76 40-33c3-3 8-5 13-5 5 0 8 2 13 5l40 33 89-76c-3-2-8-4-12-4z"/>
<glyph glyph-name="evernote" unicode="&#106;" d="M218 448c-23 0-42-19-42-42l0-41c0-5-3-8-8-8l-42 0c-17 0-33-15-33-32 0-37 3-72 11-95 8-27 24-43 45-48l59-12c10-2 18 0 26 4 8 5 12 13 14 23l2 19c9-13 25-19 43-19l25 0c20 0 34-15 34-34l0-25c0-15-11-26-26-26l-24 0c-4 0-8 3-9 6 0 4 0 5 1 7 2 1 4 3 7 3l16 0c5 0 8 3 8 8l0 34c0 4-3 8-8 8l-26 0c-27 0-49-23-49-50l0-16c0-27 22-50 49-50l42 0c83 0 83 119 83 176 0 58-2 96-8 130-6 27-22 43-50 48-1 0-49 5-76 6-4 15-18 26-36 26z m-55-21l-59-59c8 3 14 5 22 5l34 0 0 33c0 7 2 15 3 21z m176-129c11 0 21-10 21-21 0-5-2-10-5-13-6 5-19 10-33 10-2 0-4 0-4 0 0 1 0 3 0 4 0 10 10 20 21 20z"/>
<glyph glyph-name="facebook" unicode="&#107;" d="M448 254c0 106-86 192-192 192-106 0-192-84-192-192 0-96 70-176 162-190l0 134-48 0 0 56 48 0 0 42c0 48 28 75 72 75 22 0 43-3 43-3l0-48-24 0c-24 0-32-14-32-30l0-37 53 0-8-56-45 0 0-135c93 18 163 96 163 192z"/>
<glyph glyph-name="flickr" unicode="&#108;" d="M448 256c0-50-40-90-90-90-49 0-89 40-89 90 0 50 40 90 89 90 50 0 90-40 90-90z m-205 0c0-50-40-90-89-90-50 0-90 40-90 90 0 50 40 90 90 90 49 0 89-40 89-90z"/>
<glyph glyph-name="flipboard" unicode="&#109;" d="M69 443l0-374 125 0 0 125 124 0 0 124 125 0 0 125z"/>
<glyph glyph-name="google-plus" unicode="&#110;" d="M168 280l0-58 96 0c-5-24-29-72-96-72-58 0-102 48-102 106 0 58 44 106 102 106 34 0 54-15 67-26l45 43c-29 29-67 45-112 45-94 0-168-75-168-168 0-93 74-168 168-168 96 0 160 67 160 163 0 11 0 19-2 29z m344 0l-48 0 0 48-48 0 0-48-48 0 0-48 48 0 0-48 48 0 0 48 48 0"/>
<glyph glyph-name="hacker-news" unicode="&#111;" d="M109 448l56 0 72-147c9-23 19-43 19-43 0 0 10 20 21 43l73 147 53 0-125-235 0-149-48 0 0 152z"/>
<glyph glyph-name="heart" unicode="&#112;" d="M256 80l-27 26c-99 89-165 148-165 220 0 60 46 106 106 106 33 0 65-16 86-40 21 24 53 40 86 40 60 0 106-46 106-106 0-72-66-131-165-220z"/>
<glyph glyph-name="instagram" unicode="&#113;" d="M446 333c-1 19-3 33-9 46-5 15-13 24-23 35-11 10-20 18-35 23-14 5-29 8-46 9-19 2-27 2-77 2-50 0-58 0-77-2-19 0-33-3-48-8-13-6-24-12-33-24-12-9-18-20-24-33-5-15-8-29-8-48-2-19-2-27-2-77 0-50 0-58 2-77 1-19 3-33 9-46 5-15 13-24 23-35 11-12 20-18 35-23 14-5 29-8 46-9 19-2 26-2 77-2 51 0 58 0 77 2 19 1 33 3 46 9 15 5 24 13 35 23 12 11 18 20 23 35 5 14 8 29 9 46 2 19 2 26 2 77 0 51 0 58-2 77z m-44-152c0-18-4-27-7-32-3-8-6-13-13-19-6-7-11-10-19-13-6-2-16-5-32-7-19-1-25-1-75-1-50 0-56 0-75 1-18 0-27 4-32 7-8 3-13 6-19 13-7 6-10 11-13 19-2 6-5 16-7 32-1 19-1 25-1 75 0 50 0 56 1 75 0 18 4 27 7 32 3 8 6 13 13 19 6 7 11 10 19 13 6 2 16 5 32 7 19 1 25 1 75 1 50 0 56 0 75-1 18 0 27-4 32-7 8-3 13-6 19-13 7-6 10-11 13-19 2-6 5-16 7-32 1-19 1-25 1-75 0-50-1-56-1-75z m-146 176c-56 0-101-45-101-101 0-56 45-101 101-101 56 0 101 45 101 101 0 56-45 101-101 101z m0-157c-30 0-56 26-56 56 0 30 26 56 56 56 30 0 56-26 56-56 0-30-26-56-56-56z m99 184c-16 0-29-13-29-29 0-16 13-29 29-29 16 0 29 13 29 29 0 16-13 29-29 29z"/>
<glyph glyph-name="link" unicode="&#114;" d="M197 243c8 0 14-3 19-8l18-17c11-12 11-29 0-40l-63-63c-5-5-13-8-19-8-8 0-14 3-19 8l-18 18c-11 11-11 29 0 40l63 62c4 5 11 8 19 8m0 42c-19 0-37-8-50-21l-62-62c-13-13-21-31-21-50 0-19 8-37 21-50l17-17c13-13 31-21 50-21 19 0 37 8 50 21l62 62c27 27 27 72 0 99l-18 18c-12 14-30 21-49 21z m163 121c8 0 14-3 19-8l18-17c11-11 11-29 0-40l-63-63c-4-4-12-8-19-8-8 0-14 4-19 8l-18 18c-11 11-11 29 0 40l63 62c5 5 11 8 19 8m0 42c-19 0-37-8-50-21l-62-62c-27-27-27-72 0-99l18-18c12-13 30-21 49-21 19 0 37 8 50 21l62 62c13 13 21 31 21 50 0 19-8 37-21 50l-17 17c-13 13-31 21-50 21z m-51-142l-101-103c0 0-2 2-2 2-1 1-1 1-1 1l102 103c0 0 2-2 2-2 0 0 0-1 0-1z m-3 3c0 0 1-2 1-2 2-1 2-1 2-1l-101-103c0 0-2 2-2 2-1 1-1 1-1 1l101 103m0 29c-8 0-15-4-20-8l-102-103c-5-5-8-13-8-19 0-11 6-18 10-22 3-4 9-10 22-10 8 0 14 3 19 8l103 102c4 5 8 12 8 18 1 13-7 21-10 24-5 3-11 10-22 10z"/>
<glyph glyph-name="linkedin" unicode="&#115;" d="M110 448c-25 0-46-21-46-46 0-26 21-47 46-47 26 0 47 21 47 47 1 25-19 46-47 46z m-40-384l80 0 0 256-80 0z m288 264c0 0-64 5-80-43l0 35-80 0 0-256 80 0 0 136c0 5 2 54 48 54 44 0 42-59 42-59l0-131 80 0 0 149c0 0 10 115-90 115z"/>
<glyph glyph-name="livejournal" unicode="&#116;" d="M269 424c-23 0-43-3-64-11l-35 35-8 0-2-2c-42-19-75-51-93-94l-3-6 37-37c-8-21-13-42-13-64 0-99 80-179 179-179 99 0 179 80 179 179 2 99-78 179-177 179z m57-213c-1-1-3-3-6-5-5-4-10-9-14-14-2-2-4-3-5-6-2-2-3-5-5-7-2-1-3-5-5-6l-33 8c0 1 1 3 1 5 2 1 2 3 3 4 2 4 4 5 5 8 2 2 2 4 3 5 2 3 5 7 7 8 0 2 1 2 1 3 10 12 21 21 34 31 5 3 8 5 13 8 0 0 0 0 1 0 2 1 5 1 7 3l6-34c-3-1-5-3-6-4-2-5-3-5-7-7z m-233 139c14 31 40 55 70 71l24-24c-30-16-54-40-70-71z m176-260c-87 0-155 70-155 155 0 17 3 33 9 51l125-125c0 0 0 0 2 0 0 0 0 0 1 0l47-9 64-13c0 0 1 0 1 0 2 0 3 0 5 1 2 2 2 4 2 5l-13 64-10 47c0 1 0 1-1 3l-125 125c16 6 33 8 51 8 86 0 155-71 155-156-3-88-73-156-158-156z"/>
<glyph glyph-name="medium" unicode="&#117;" d="M109 346c0 4-2 9-5 12l-35 44 0 6 112 0 86-189 75 189 106 0 0-6-30-29c-4-2-4-5-4-8l0-216c0-3 0-7 4-8l30-29 0-6-150 0 0 6 30 30c3 4 3 4 3 8l0 173-86-219-11 0-101 219 0-147c-2-6 1-13 5-18l40-49 0-7-114 0 0 7 40 51c5 5 6 11 5 18z"/>
<glyph glyph-name="messenger" unicode="&#118;" d="M256 448c-109 0-192-80-192-186 0-56 22-104 61-137 3-3 5-7 5-11l1-34c0-11 11-18 21-13l38 18c4 1 7 1 10 0 18-5 37-8 56-8 109 0 192 80 192 185 0 106-83 186-192 186z m-115-240l56 90c9 14 29 17 41 8l45-34c5-3 10-3 15 0l60 46c8 7 20-3 13-12l-56-90c-9-14-29-18-41-8l-45 34c-5 3-10 3-15 0l-60-47c-8-6-18 3-13 13z"/>
<glyph glyph-name="mix" unicode="&#119;" d="M64 424l0-299c0-48 75-50 75 0l0 205c7 44 75 43 75-5l0-151c0-49 82-49 82 0l0 100c5 46 75 44 75-4l0-20c0-52 75-48 75 0l0 174z"/>
<glyph glyph-name="myspace" unicode="&#120;" d="M381 251c33 0 61 27 61 61 0 34-28 61-61 61-34 0-61-27-61-61 0-34 27-61 61-61z m-138-11c31 0 55 24 55 54 0 31-24 55-55 55-30 0-54-24-54-55 0-30 24-54 54-54z m-125-10c28 0 50 23 50 50 0 27-22 50-50 50-27 0-49-23-49-50 0-27 22-50 49-50z m0-11c-32 0-54-27-54-56l0-19c0-3 2-5 5-5l99 0c3 0 5 2 5 5l0 19c0 29-23 56-55 56z m125 8c-35 0-61-30-61-62l0-21c0-3 4-5 5-5l109 0c3 0 5 3 5 5l0 21c3 32-23 62-58 62z m138 11c-39 0-67-33-67-68l0-24c0-4 3-7 6-7l122 0c3 0 6 3 6 7l0 24c0 33-29 68-67 68z"/>
<glyph glyph-name="periscope" unicode="&#121;" d="M258 448c-87 0-154-72-154-158 0-92 120-226 154-226 30 0 148 134 148 226 2 86-67 158-148 158z m1-242c-53 0-94 40-94 88 0 23 8 42 19 58 0-19 16-35 37-35 21 0 37 16 37 35 0 14-10 27-23 32 8 2 16 3 24 3 48 0 90-40 90-94 0-45-42-87-90-87z"/>
<glyph glyph-name="pin" unicode="&#122;" d="M357 226c-2 35-19 65-47 83l0 101c24 16 36 38 36 38l-181 0c0 0 11-22 35-38l0-103c-29-17-46-48-46-83l83 0 0-104c0-10 9-58 19-58 10 0 19 48 19 58l0 104c0 2 82 2 82 2z"/>
<glyph glyph-name="pinterest" unicode="&#65;" d="M256 448c-106 0-192-86-192-192 0-78 48-146 115-176 0 13 0 29 3 45 4 16 24 104 24 104 0 0-6 13-6 30 0 29 16 50 37 50 17 0 25-13 25-29 0-18-11-43-17-69-5-21 9-37 30-37 37 0 61 47 61 103 0 41-29 73-80 73-58 0-94-43-94-91 0-16 4-29 12-38 4-5 5-7 4-11-2-4-4-13-4-16-1-5-4-7-9-5-27 11-40 40-40 73 0 55 46 120 137 120 74 0 122-52 122-110 0-75-42-131-104-131-21 0-40 11-46 24 0 0-12-45-13-53-5-14-13-30-19-42 17-4 35-8 54-8 106 0 192 87 192 192 0 108-86 194-192 194z"/>
<glyph glyph-name="plus" unicode="&#66;" d="M299 416l0-320c0-18-14-32-32-32l-21 0c-17 0-32 14-32 32l0 320c0 18 15 32 32 32l21 0c18 0 32-14 32-32z m117-203l-320 0c-18 0-32 14-32 32l0 21c0 17 14 32 32 32l320 0c18 0 32-15 32-32l0-21c0-18-14-32-32-32z"/>
<glyph glyph-name="pocket" unicode="&#67;" d="M446 405c-4 14-17 22-32 22l-315 0c-14 0-27-9-32-22-3-3-3-8-3-13l0-115 2-23c4-52 32-97 75-129 0 0 1-2 1-2 23-16 48-27 76-33 12-4 25-4 38-4 11 0 24 2 35 4 2 0 3 0 5 1 0 0 2 0 2 0 25 7 49 16 72 32 0 0 1 2 1 2 42 32 69 78 75 129l2 23 0 115c0 5 0 8-2 13z m-81-122l-90-86c-5-5-11-8-17-8-7 0-13 3-18 8l-90 86c-11 10-11 27 0 37 10 11 28 11 37 0l72-69 72 69c11 10 27 10 37 0 8-10 8-26-3-37z"/>
<glyph glyph-name="print" unicode="&#68;" d="M384 301l0 78c0 39-32 69-70 69l-116 0c-38 0-68-30-68-69l0-77c-26-9-45-35-45-64l0-43c0-30 19-54 45-64 1-37 32-65 68-65l116 0c36 0 67 28 68 65 26 10 45 35 45 64l0 43c0 28-17 53-43 63z m-213 78c0 16 13 27 27 27l116 0c16 0 27-12 27-27l0-115c0-16-13-27-27-27l-116 0c-16 0-27 13-27 27z m143-273l-116 0c-12 0-22 8-25 19l168 0c-5-11-15-19-27-19z m27 72c-7 0-11 4-11 11 0 6 4 11 11 11 6 0 11-5 11-11 0-7-5-11-11-11z m-128 176l86 0c7 0 11 4 11 11 0 6-4 11-11 11l-86 0c-7 0-11-5-11-11 0-7 4-11 11-11z m0-45l86 0c7 0 11 5 11 11 0 6-4 11-11 11l-86 0c-7 0-11-5-11-11 0-6 4-11 11-11z m0-45l86 0c7 0 11 5 11 11 0 7-3 13-9 13l-87 0c-6 0-11-5-11-11 0-7 3-13 10-13z"/>
<glyph glyph-name="reddit" unicode="&#69;" d="M400 310c-14 0-29-6-38-19l-2-3c-22 16-53 26-86 29l14 48 42-10c3-21 19-35 40-35 22 0 41 18 41 42 0 22-17 41-41 41-16 0-29-9-37-22l-51 13c-7 1-13-2-15-8l-21-66c-36-2-70-11-96-27l-3 3c-8 8-21 14-35 14-27 0-48-20-48-48 0-20 13-38 32-44l8-4 0 2c0 0 0 0 0-2 0-56 67-102 150-102 84 0 151 45 151 101l8 3c21 6 33 24 33 46 2 26-19 48-46 48z m-29 64c8 0 15-6 15-14 0-8-7-14-15-14-8 0-14 6-14 14-2 8 5 14 14 14z m-267-132c-8 3-14 11-14 20 0 13 9 23 22 23 6 0 13-3 16-8l3-3c-9-10-17-23-22-34z m152-106c-70 0-126 35-126 78 0 44 56 79 126 79 70 0 126-35 126-79 0-43-57-78-126-78z m152 106l-6-2c-5 13-12 24-23 34l3 4c5 5 10 8 16 8 13 0 23-9 23-22 1-11-5-19-13-22z m-178-4c0 13-9 23-22 23-13 0-22-10-22-23 0-12 9-22 22-22 13 0 22 10 22 22z m76 23c-13 0-23-10-23-23 0-12 10-22 23-22 12 0 22 10 22 22 0 12-11 23-22 23z m-2-71c-3 0-6-1-8-3-8-8-21-11-40-11-19 0-32 3-38 11-5 5-13 5-18 0-2-1-3-5-3-8 0-3 1-6 3-8 13-13 30-17 56-17 26 0 45 6 56 17 2 2 3 5 3 8 0 3-1 7-3 8-2 2-5 3-8 3z"/>
<glyph glyph-name="rss" unicode="&#70;" d="M168 115c0-29-24-51-51-51-29 0-53 24-53 51 0 29 24 51 51 51 31 2 53-22 53-51z m-104 202l0-77c96-2 174-80 176-176l77 0c0 139-114 253-253 253z m0 54c82 0 158-32 216-89 58-58 90-135 90-218l78 0c0 211-173 384-384 384z"/>
<glyph glyph-name="share" unicode="&#71;" d="M368 194c-18 0-34-7-45-18l-117 66c4 9 4 20 0 30l117 66c26-26 66-24 91 1 26 26 24 66-1 91-26 26-66 24-91-1-15-15-21-35-18-55l-120-67c-27 23-69 19-91-8-23-27-19-69 8-91 24-19 59-19 83 0l120-67c-6-35 19-69 54-74 36-6 69 19 74 55 5 35-19 68-54 73-2-1-5-1-10-1z"/>
<glyph glyph-name="skype" unicode="&#72;" d="M437 216c3 13 5 26 5 38 0 100-82 180-183 180-11 0-21-2-32-4-16 10-35 16-56 16-59 0-107-46-107-104 0-19 5-36 14-52-3-12-3-24-3-37 0-99 82-179 183-179 11 0 22 1 33 3 15-8 32-13 50-13 59 0 105 46 105 104 2 18-1 34-9 48z m-85-48c-8-11-21-21-37-27-16-7-35-10-57-10-26 0-48 5-66 13-13 6-22 16-30 26-8 11-12 22-12 32 0 6 4 12 8 17 5 5 12 7 20 7 6 0 11-2 16-5 4-3 8-8 11-16 3-8 6-13 11-18 3-5 8-8 16-11 6-3 16-5 27-5 15 0 27 3 37 10 10 6 13 13 13 22 0 7-2 13-7 18-4 5-11 8-19 11-8 3-19 5-33 8-20 3-36 8-48 14-13 5-24 13-32 23-8 9-12 22-12 37 0 12 5 25 13 36 8 12 21 20 35 24 15 5 34 8 55 8 16 0 30-1 43-4 13-4 22-8 30-15 8-6 15-13 18-19 3-6 6-14 6-21 0-6-3-13-8-17-4-5-11-8-19-8-6 0-13 1-16 4-3 4-6 8-11 15-5 8-10 16-16 19-6 5-16 6-30 6-13 0-24-3-32-8-8-4-12-11-12-17 0-5 2-8 4-11 3-4 6-7 11-8 5-2 9-5 14-7 5-1 15-3 26-6 14-3 29-7 40-10 13-3 22-8 32-14 8-7 16-13 21-21 4-8 8-19 8-32-5-14-10-29-18-40z"/>
<glyph glyph-name="sms" unicode="&#73;" d="M344 307l-8 0 0 79c0 33-29 62-62 62l-106 0c-35 0-64-29-64-62l0-258c0-35 29-62 62-62l106 0c35 0 62 28 62 62l0 14 8 0c36 0 63 29 63 63l0 40c3 35-26 62-61 62z m-46-181c0-14-12-25-26-25l-106 0c-14 0-25 11-25 25l0 260c0 14 11 25 25 25l106 0c14 0 26-11 26-25l0-77-63 0c-35 0-62-29-62-63l0-40c0-35 29-62 62-62l63 0z m72 79c0-15-12-26-26-26l-109 0c-14 0-25 11-25 26l0 40c0 14 11 25 25 25l109 0c14 0 26-11 26-25z m-120 30c-7 0-12-5-12-11 0-6 5-11 12-11 6 0 11 5 11 11 0 6-5 11-11 11z m40 0c-7 0-12-5-12-11 0-6 5-11 12-11 6 0 11 5 11 11 0 6-5 11-11 11z m40 0c-7 0-12-5-12-11 0-6 5-11 12-11 6 0 11 5 11 11 0 6-5 11-11 11z"/>
<glyph glyph-name="snapchat" unicode="&#74;" d="M259 75c-1 0-1 0-3 0 0 0-2 0-2 0-22 0-36 10-51 21-9 6-19 13-30 14-5 2-11 2-16 2-10 0-16-2-23-3-3 0-6-2-8-2-1 0-4 0-6 5-2 3-2 6-2 10-1 8-3 11-6 12-37 5-46 13-48 20 0 0 0 1 0 1 0 2 2 3 3 5 56 10 80 66 82 69 3 6 5 13 1 17-3 10-16 13-24 16-1 0-3 2-4 2-16 6-18 13-18 16 2 6 10 10 14 10 2 0 4 0 5-2 8-3 15-5 19-5 8 0 12 3 12 3 0 4 0 8 0 12-2 25-4 59 4 76 26 56 77 61 93 61 0 0 7 0 7 0l1 0c16 0 69-5 93-61 8-19 6-51 5-76l0-2c0-3 0-6 0-11 0 0 3-3 11-3 5 0 11 1 19 4 2 2 5 2 7 2 1 0 4 0 6-2 5-1 10-6 10-9 0-3-4-10-18-16-2 0-3-2-5-2-8-3-21-6-24-16-1-5-1-11 2-17 1-4 25-60 81-69 2 0 4-2 4-5 0 0 0-2 0-2-2-4-13-12-48-19-4 0-5-5-7-13 0-3-1-6-1-9 0-3-4-3-5-3-2 0-5 0-8 1-10 5-16 5-26 5-5 0-9 0-16-2-11-1-21-8-30-14-13-10-27-21-50-21z"/>
<glyph glyph-name="telegram" unicode="&#76;" d="M421 429c-7 0-13 0-21-3-8-4-144-61-270-114l-42-18c-16-6-24-17-24-32 0-9 5-24 24-32l70-28c7-18 21-61 24-72 2-7 8-24 21-28 3-1 7-1 8-1 8 0 15 3 18 6l45 39 54-50c2-2 13-13 29-13 19 0 32 16 35 31 2 8 54 272 54 272 5 20-3 32-9 36-5 4-10 5-16 7z m-13-42c-8-37-46-235-53-262l-80 73-54-46 14 59c0 0 103 104 109 111 5 4 6 6 6 8 0 1-1 3-3 3-3 0-6-2-8-3-22-15-115-68-161-93l-66 25 32 15c83 35 230 96 264 110z"/>
<glyph glyph-name="tumblr" unicode="&#77;" d="M347 142c-59-27-67 23-67 23l0 120 72 0 0 65-72 0 0 98-59 0c0 0-8-86-75-106l0-57 43 0 0-125c0-61 51-96 105-96 55 0 72 24 72 24z"/>
<glyph glyph-name="twitter" unicode="&#78;" d="M448 374c-14-6-29-11-45-12 16 9 29 25 35 43-16-10-32-16-49-19-15 16-35 25-58 25-51 0-88-48-77-96-65 3-123 35-161 82-23-35-13-82 22-104-13 0-25 3-35 9-2-36 26-70 62-78-11-3-24-3-35-2 10-32 39-54 74-54-34-26-75-37-117-32 35-22 77-35 120-35 146 0 229 123 224 233 16 12 29 26 40 40z"/>
<glyph glyph-name="viber" unicode="&#79;" d="M421 363c-7 24-19 42-39 55-24 16-51 22-75 25-33 5-62 5-91 2-27-3-46-8-64-18-35-16-58-43-64-78-3-18-5-34-6-48-4-35 0-66 8-95 8-27 22-48 43-60 5-2 11-5 17-7 4-1 8-3 10-3 3-2 3-2 3-3 0-19 0-59 0-59l0-8 15 0 3 1c1 2 38 37 51 51l2 2c1 3 1 3 4 3 18 0 36 2 55 2 22 1 46 3 70 13 23 9 39 24 48 43 10 21 16 41 18 67 5 43 1 82-8 115z m-79-169c-4-10-14-15-24-20-6-3-14-1-20 0-58 24-104 64-135 119-6 11-11 24-16 37-1 3-1 4-1 8 0 19 16 30 30 33 6 2 11 0 16-5 11-11 21-24 29-40 3-6 1-12-3-17-2-2-2-2-4-3-12-10-14-16-8-31 12-24 29-38 53-48 7-3 13-1 16 3 0 0 2 2 2 2 9 16 22 14 35 5 8-7 16-11 24-18 14-5 14-13 6-25z m-76 153c-4 0-5 0-8 0-5 0-10 2-10 7 0 4 2 9 6 9 4 0 8 2 12 2 36 0 65-29 65-66 0-3 0-8-1-11 0-5-5-6-8-6 0 0-2 0-2 0-5 0-8 4-6 9 0 3 0 5 0 8 1 27-21 48-48 48z m40-49c0-5-4-8-8-8-5 0-8 3-8 8 0 14-12 25-26 25-5 0-8 3-8 8 0 5 3 8 8 8 24 0 42-19 42-41z m48-20c-2-3-5-6-8-6 0 0-2 0-2 0-5 2-8 5-6 10 1 4 1 11 1 16 0 40-33 73-73 73-5 0-12 0-16-1-5 0-10 3-10 8-2 4 2 9 6 9 7 2 13 2 21 2 50 0 90-40 90-90-2-6-2-13-3-21z"/>
<glyph glyph-name="vimeo" unicode="&#80;" d="M64 333l16-21c0 0 32 26 43 13 11-13 51-167 66-194 11-24 45-57 81-33 37 24 156 126 178 246 21 122-144 96-162-10 44 26 68-11 45-52-22-42-43-69-53-69-11 0-19 29-30 77-13 51-13 142-66 131-52-11-118-88-118-88z"/>
<glyph glyph-name="vine" unicode="&#81;" d="M438 258c-11-4-20-4-30-4-53 0-93 37-93 101 0 32 13 48 29 48 16 0 27-14 27-45 0-17-5-35-8-46 0 0 16-29 61-19 10 21 14 48 14 72 0 64-32 101-92 101-61 0-98-48-98-109 0-63 29-115 77-139-21-40-45-76-72-103-48 58-91 136-109 288l-70 0c33-253 131-333 156-349 15-8 28-8 40-1 21 11 85 75 119 149 14 0 32 1 49 6z"/>
<glyph glyph-name="vk" unicode="&#82;" d="M438 355c4 10 0 16-12 16l-42 0c-11 0-16-6-18-11 0 0-20-53-51-86-9-10-14-13-19-13-3 0-6 3-6 13l0 81c0 11-4 16-13 16l-66 0c-6 0-11-5-11-9 0-10 14-13 16-42l0-62c0-13-3-16-8-16-14 0-50 52-69 112-5 11-8 16-19 16l-42 0c-12 0-14-5-14-12 0-11 14-65 66-139 35-49 83-77 128-77 27 0 30 7 30 16l0 39c0 13 3 14 11 14 7 0 18-3 42-27 29-29 33-42 49-42l42 0c13 0 18 7 14 18-3 11-17 29-35 50-9 11-24 24-29 30-6 8-4 11 0 19 0-1 52 71 56 96"/>
<glyph glyph-name="wechat" unicode="&#83;" d="M374 219c-8 0-14 7-14 15 0 8 6 14 14 14 8 0 15-6 15-14 0-8-7-15-15-15m-75 0c-8 0-14 7-14 15 0 8 6 14 14 14 8 0 15-6 15-14 0-8-7-15-15-15m111-85c24 18 38 42 38 71 0 51-50 93-112 93-62 0-112-42-112-93 0-51 50-93 112-93 13 0 26 2 37 5 1 0 1 0 3 0 2 0 5 0 6-2l24-14c0 0 2 0 2 0 2 0 3 1 3 3 0 2 0 2 0 3 0 0-3 11-5 19 0 0 0 2 0 2 0 3 2 5 4 6m-168 184c-10 0-18 8-18 18 0 10 8 18 18 18 9 0 17-8 17-18 0-10-6-18-17-18m-88 0c-10 0-18 8-18 18 0 10 8 18 18 18 9 0 17-8 17-18 0-10-8-18-17-18m44 93c-73 0-134-49-134-112 0-33 18-64 46-85 2 0 4-3 4-6 0-2 0-2 0-3-2-8-7-23-7-23 0-1 0-1 0-3 0-3 2-5 5-5 0 2 2 2 2 2l28 18c2 1 5 1 7 1 1 0 3 0 3 0 14-3 29-6 43-6 3 0 5 0 8 0-3 8-5 17-5 27 0 56 55 102 122 102 3 0 5 0 8 0-8 53-64 93-130 93"/>
<glyph glyph-name="whatsapp" unicode="&#84;" d="M392 392c-37 37-85 56-134 56-106 0-191-85-191-190 0-34 8-66 26-95l-27-99 100 27c28-14 60-22 92-22 105 0 190 85 190 190-2 50-21 98-56 133z m-134-293c-29 0-56 8-80 23l-7 3-59-16 16 57-3 7c-16 25-24 54-24 85 0 88 70 158 158 158 42 0 82-16 112-46 31-31 47-71 47-112-4-88-74-159-160-159z m86 119c-5 1-29 14-32 16-5 1-8 1-11-2-3-5-13-16-15-19-3-3-4-3-9-2-5 2-21 8-39 24-14 13-24 29-27 34-3 5 0 8 2 9 1 2 5 5 6 8 2 4 3 5 5 8 2 4 0 7 0 8-2 2-11 26-14 36-4 8-8 8-12 8-3 0-6 0-9 0-3 0-8-2-13-7-5-5-16-16-16-40 0-24 18-46 19-49 2-4 34-53 82-72 40-16 48-13 57-12 8 0 29 12 32 23 4 11 4 21 4 22-2 3-5 5-10 7z"/>
<glyph glyph-name="wordpress" unicode="&#85;" d="M91 256c0-66 39-122 93-149l-78 216c-10-21-15-43-15-67z m275 8c0 21-8 35-12 45-8 13-16 25-16 38 0 15 11 29 27 29 0 0 1 0 1 0-28 27-68 43-112 43-57 0-108-29-137-73 3 0 8 0 11 0 18 0 43 1 43 1 10 0 10-13 2-13 0 0-10-1-19-1l59-179 37 108-26 71c-10 0-18 1-18 1-9 0-8 15 2 13 0 0 27-1 43-1 18 0 43 1 43 1 10 0 10-13 2-13 0 0-10-1-19-1l59-178 16 55c10 24 14 40 14 54z m-107-22l-49-144c14-5 30-7 46-7 19 0 37 3 54 10 0 0-1 1-1 1z m141 92c0-4 2-11 2-17 0-16-4-35-13-59l-50-146c50 29 82 82 82 142 0 31-8 58-21 80z m-144 114c-106 0-192-86-192-192 0-106 86-192 192-192 106 0 192 86 192 192 0 106-86 192-192 192z m0-374c-101 0-182 81-182 182 0 101 81 182 182 182 101 0 182-81 182-182 0-101-81-182-182-182z"/>
<glyph glyph-name="xing" unicode="&#86;" d="M158 171l-59 0c-5 0-8 7-6 11l62 116c2 1 2 4 0 6l-38 69c-3 5 0 11 3 11l59 0c2 0 5-2 7-5l44-78c2-2 2-5 0-7l-65-121c0 0-3-2-7-2z m261 266l-120-219c-1-2-1-5 0-7l77-136c2-5 0-11-6-11l-60 0c-1 0-4 2-6 5l-82 142c-1 2-1 5 0 7l124 228c1 0 6 2 8 2l59 0c6 0 8-6 6-11z"/>
<glyph glyph-name="yahoo" unicode="&#87;" d="M357 435l-71-179 88 0 74 179z m-128-88l-45-104-43 104-77 0 82-193-32-77 78 0 114 270z m126-153c0-26-21-47-46-47-26 0-47 21-47 47 0 25 21 46 47 46 25 0 46-21 46-46z"/>
<glyph glyph-name="youtube" unicode="&#88;" d="M339 395l-166 0c-95 0-109-6-109-97l0-84c0-91 14-97 109-97l165 0c94 0 108 5 108 97l0 84c2 91-12 97-107 97z m-123-208l0 144 109-72z"/>
<glyph glyph-name="yummly" unicode="&#89;" d="M104 416c2 6 6 11 13 14 17 13 37 20 59 18 18-2 30-11 34-30 3-13 0-28-4-40-8-28-14-56-22-84-2-4-2-11-2-16 0-8 4-11 12-12 8-2 16 0 24 3 12 3 25 8 36 14 2 2 4 2 4 5 3 18 6 34 9 51 3 18 7 35 10 51 1 12 3 23 5 34 0 3 0 8-2 11-2 5 0 7 3 8 11 3 21 5 31 3 8-1 14-8 12-16 0-9-1-17-3-27-3-19-6-37-9-56-4-19-7-40-10-59-3-19-6-40-10-59-1-8-3-16-4-24 0-2 0-3 1-3 34-5 66-13 96-28 5-1 11-3 16-4 3-2 5-2 5-7 0-8-2-14-5-19-6-11-19-14-32-10-8 4-16 8-24 13-17 10-35 16-56 19-1 0-3 0-5 0-1 0-3 0-3-1-3-18-8-34-16-50-6-13-14-24-25-32-12-8-23-13-37-16-3 0-5-1-8-1-3 0-7 0-10 0-1 0-1 0-3 0-14 1-26 6-35 17-10 13-13 27-10 43 5 26 19 45 42 58 19 11 40 16 61 19 1 0 3 0 3 3 0 5 1 10 3 15 2 5 2 11 3 16-1-2-3-3-6-3-24-15-50-20-77-16-13 0-24 6-30 17-7 11-7 24-4 35 7 26 13 52 21 77 3 13 7 26 10 40 1 10-2 18-15 15-9-4-16-8-22-15-3-1-5-3-8 0-5 5-10 10-11 15-2 3-3 6-5 11 0 0 0 1 0 3z m133-251c-16-3-31-8-42-19-6-7-9-15-9-23 0-9 6-14 16-13 8 2 12 7 17 13 7 8 10 18 13 27 3 5 3 10 5 15z"/>
<glyph glyph-name="social-warfare-1" unicode="&#75;" d="M256 448c-106 0-192-86-192-192 0-106 86-192 192-192 106 0 192 86 192 192 0 106-86 192-192 192z m-2-339c-84 0-102 56-104 86 0 8 4 11 12 13l44 10c8 1 13-2 13-12 2-19 16-30 35-30 20 0 34 11 32 22-8 34-129 28-129 119 0 13 6 83 97 83 84 0 103-54 104-83 0-8-3-11-11-13l-46-10c-8-1-13 2-13 10-3 16-16 27-35 27-16 0-26-9-24-19 6-32 133-30 133-123 1-8-13-80-108-80z"/>
<glyph glyph-name="warfare-plugins-1" unicode="&#90;" d="M64 272c-5-51 11-101 45-141 14-17 32-32 51-43 24-14 51-22 80-26 51-4 101 12 141 45 40 34 62 80 67 131 5 52-11 101-45 141-14 18-32 32-51 43-24 15-51 23-80 26-51 5-101-11-141-45-38-33-62-80-67-131z m59-56l37 146c2 9 8 17 16 22 19 13 43 21 67 22 10 0 8-6 8-6l-48-162c0-3 0-4 2-4 1 0 3 1 5 3l59 69c14 17 40 20 59 8 8-7 13-16 13-28l-8-80c0-3 0-4 1-4 2 0 4 1 5 3l55 89c3 5 9 4 11-1 5-16 6-34 5-53-7-78-72-139-151-139-8 0-8 8-8 8l19 89c0 4 0 5-1 5-2 0-3 0-7-3l-62-78c-3-5-10-7-14-4-23 12-40 29-55 48-9 18-13 34-8 50z"/>
</font>
</defs>
</svg>
